#TITLE:Super Dancer (mix);
#SUBTITLE:;
#ARTIST:9you;
#TITLETRANSLIT:;
#SUBTITLETRANSLIT:;
#ARTISTTRANSLIT:;
#CREDIT:;
#BANNER:;
#BACKGROUND:;
#LYRICSPATH:;
#CDTITLE:;
#MUSIC:sdo.mp3;
#OFFSET:-0.572;
#SAMPLESTART:43.384;
#SAMPLELENGTH:12.000;
#SELECTABLE:YES;
#BPMS:0.000=140.148;
#STOPS:;
#BGCHANGES:;
// cache tags:
#FIRSTBEAT:0.000;
#LASTBEAT:287.750;
#SONGFILENAME:Songs/9you/SDO-Super Dancer Mix/sdo.sm;
#HASMUSIC:1;
#HASBANNER:0;
#MUSICLENGTH:126.955;
// end cache tags

//---------------dance-single - ----------------
#NOTES:
     dance-single:
     :
     Medium:
     1:
     0.848,0.850,0.670,0.228,1.000,635.000,85.000,29.000,0.000,8.000:  // measure 1
1000
0000
0100
0000
0000
0010
0000
0100
0000
0010
0000
1000
0000
0001
0000
0000
,  // measure 2
0100
0000
0010
0100
0000
0000
0001
0000
1000
0000
0010
0000
0100
0000
0001
0000
,  // measure 3
0100
0000
0010
0000
1000
0000
0010
0000
0000
0100
0000
0001
0000
1000
0000
0010
,  // measure 4
0000
0000
0100
0000
0010
0100
0000
0000
0001
0000
1000
0000
0010
0000
0100
0000
,  // measure 5
0020
0000
0000
0100
0000
0100
0000
0100
0000
0000
0001
0000
1000
0001
0100
0001
,  // measure 6
0200
0000
0000
0000
0000
0000
0000
0000
0030
0000
0000
0310
0000
0010
0000
0000
,  // measure 7
0200
0000
0000
0000
0000
0000
0000
0000
0000
0000
0310
0020
0000
1000
0030
0100
,  // measure 8
0020
0000
0000
0000
0000
0000
0000
0000
0000
0100
1000
0000
0130
0100
0000
0000
,  // measure 9
0000
0001
0010
0100
0000
0010
1000
0001
0100
0010
0100
0010
0000
1000
0000
0100
,  // measure 10
0010
0100
0010
0000
1000
0001
0100
0010
0100
0010
0000
1000
0001
0100
0000
0010
,  // measure 11
0100
0001
0000
1000
0010
0100
0010
1000
0001
0000
0100
0010
0100
0000
0010
0000
,  // measure 12
0100
0001
1000
0010
0100
0010
0000
0000
0101
0000
0000
0000
1010
0000
0000
0000
,  // measure 13
0101
0000
0010
1000
0000
0100
0010
0000
0010
0100
0001
0000
1000
0010
0000
0100
,  // measure 14
0010
0100
0001
1000
0010
0000
0100
0010
0100
0001
0000
0010
0000
1000
0000
0100
,  // measure 15
0010
0010
0100
0002
0000
0000
0000
0000
0000
0000
0010
0010
0000
0000
1100
0000
,  // measure 16
0100
0010
0000
0003
0010
0000
0100
0000
0010
0100
0010
0000
0010
1000
0000
0100
,  // measure 17
0010
0000
0000
0000
0010
0011
0100
1000
0100
0010
0010
0000
0001
0010
0100
0000
,  // measure 18
0110
0000
0000
1111
0000
0000
0111
0110
0000
0000
1001
0000
0010
0100
0000
0010
,  // measure 19
0010
0000
0100
0000
0001
0000
0010
0100
1000
0100
0010
0010
0000
0001
0010
0000
,  // measure 20
0100
0010
0000
0000
0110
0000
0000
0000
0010
0100
1000
0100
0010
0000
0010
0000
,  // measure 21
0100
0000
0001
0001
0010
0100
1000
0000
0110
0000
0010
0100
0000
0001
0010
0000
,  // measure 22
0100
0100
0001
0100
0000
0000
1010
0000
0000
0000
0000
0001
0000
0001
0010
0100
,  // measure 23
0010
0000
0100
0000
0010
0000
1000
0100
0010
0000
0010
0100
0000
0010
0100
0000
,  // measure 24
0011
0000
0000
0000
0110
1000
0100
0000
0010
0010
0000
0100
0010
0001
0010
0000
,  // measure 25
1100
0011
0100
0000
0010
0000
0010
0001
0010
1100
0000
0100
0000
0000
0010
0000
,  // measure 26
0010
0011
0100
1000
0000
0010
0000
0010
0100
0010
0000
0011
0000
1000
0100
0010
,  // measure 27
0010
0000
0000
0010
0001
0010
0000
0111
0000
1100
0000
0010
0000
0010
0001
0010
,  // measure 28
0100
1000
0100
0010
0000
0010
0000
0010
0001
0010
0000
0100
1000
0100
0000
0010
,  // measure 29
0010
0000
0011
0000
0011
0000
1100
0000
0110
0010
0000
0100
0010
0000
0000
0010
,  // measure 30
0000
0022
0100
0000
0133
0000
0010
0110
1000
0100
0010
0000
0010
0000
0001
0010
,  // measure 31
0011
0000
0000
0010
0000
0010
0000
0110
1000
0100
0000
0010
0000
0010
0010
0000
,  // measure 32
0011
0000
0000
1100
0100
0010
0010
0000
0010
0000
0001
0010
0000
0011
0100
0000
,  // measure 33
0110
0000
0010
0100
0010
0000
1000
0010
0000
0010
0100
0000
0010
0110
0000
0100
,  // measure 34
0010
0000
0100
0000
0010
0000
0100
0000
0010
0000
1000
0001
0001
0000
0100
0010
,  // measure 35
0010
0100
0000
0010
1000
0000
0010
0000
0100
0000
0010
0010
0100
0000
0010
0000
,  // measure 36
0011
0000
1100
0000
0110
0000
0010
0100
0010
0000
0100
0010
0000
0010
0100
0000
,  // measure 37
0101
0000
0000
0000
0000
1010
0000
0000
0000
0101
0000
0101
0000
0000
0000
0000
,  // measure 38
1010
0000
0000
0101
0000
0101
0000
0000
0000
1010
0000
1010
0000
0000
0000
0000
,  // measure 39
0101
0000
0000
1010
0000
1010
0000
0000
0000
0101
0000
0101
0000
0000
1010
0010
,  // measure 40
0100
0001
0000
0000
0020
0000
0000
0000
0130
1000
0100
0010
0000
0010
0000
0002
,  // measure 41
0010
0000
0000
0003
0010
0000
0000
0000
0010
0010
0100
1000
0100
0000
0000
0010
,  // measure 42
0010
0000
0000
0000
0001
0000
0000
0000
0010
0010
1100
0100
0020
0000
0000
0000
,  // measure 43
0030
0010
0000
0100
1000
0100
0000
0010
0010
0000
0100
0020
0000
0000
0030
0000
,  // measure 44
0001
0001
0010
0000
1100
0100
0000
0010
0010
0000
0010
0000
0011
0000
0000
0000
,  // measure 45
0020
0000
0000
0000
0230
0000
0000
0300
0020
0000
0000
0030
0010
0000
0000
0000
,  // measure 46
0001
0010
0000
1100
0100
0010
0010
0000
0011
0000
0001
0010
0100
0000
0000
0000
,  // measure 47
0010
0010
0000
0100
1000
0000
0100
0010
0010
0000
0100
0010
0000
0000
0000
0100
,  // measure 48
0010
0010
0001
0000
1100
0100
0010
0000
0010
0001
0010
0000
0010
0000
0000
0100
,  // measure 49
0010
0100
0010
0100
0010
1000
0010
0100
,  // measure 50
0010
0000
0100
0001
0000
0000
1000
0000
0010
0000
0100
0000
0010
0000
1000
0000
,  // measure 51
0001
0100
0010
0100
0010
1000
0010
0100
,  // measure 52
0010
0000
0100
0000
0010
0000
0100
0000
0010
1000
0000
0000
0010
0100
0000
0101
,  // measure 53
0000
1010
0000
0000
0110
0000
0000
0000
0101
0000
1011
0000
0110
0000
0000
0000
,  // measure 54
0101
0000
0110
0000
1001
0000
0000
0010
0100
0000
0110
0000
1001
0000
0000
0000
,  // measure 55
0110
0110
0000
1001
0000
0010
0100
0000
0001
0100
0000
0010
1010
0000
0000
0001
,  // measure 56
0000
0010
0000
0010
0000
0010
0100
1000
0100
0010
0010
0000
0010
0000
0100
0000
,  // measure 57
0010
0100
0010
1000
0001
0100
0010
0100
,  // measure 58
0001
0000
1000
0000
0110
0000
0000
1001
0000
0000
0010
0100
0010
0100
0001
0100
,  // measure 59
0010
0000
1000
0000
0010
0000
0100
0001
0000
0010
1000
0000
0010
0100
0000
0002
,  // measure 60
0010
0003
1000
0010
0000
0100
0000
0010
0001
0010
0000
0100
0010
0000
0010
0100
,  // measure 61
0000
0010
0000
1000
0010
0000
0100
0000
0010
0000
0100
0000
0011
0000
1000
0000
,  // measure 62
0010
0100
0000
0010
0100
0000
0000
1001
0000
0000
0110
0010
0100
0010
0000
0100
,  // measure 63
0010
0000
0000
1000
0010
0100
0010
0000
0010
0100
0000
0010
0100
0000
1000
0000
,  // measure 64
0110
0000
0010
0000
0011
0000
0000
0100
0010
0010
0001
0000
0100
1000
0100
0020
,  // measure 65
0000
0001
0030
0000
0002
0010
0000
0113
0000
0020
0000
0030
0100
0000
1010
0100
,  // measure 66
0000
0010
0000
0000
0000
0010
0000
0010
0100
1000
0100
0000
0010
0010
0000
0000
,  // measure 67
0002
0000
0000
0000
0013
0000
0010
0110
2000
0000
0100
3000
0010
0000
0010
0020
,  // measure 68
0000
0000
0000
0000
0230
0000
0000
0320
0000
0000
1030
0000
0100
0010
0000
0020
,  // measure 69
0000
0000
0000
0000
0030
0100
1000
0100
0000
0010
0000
0020
0000
0000
0130
0000
,  // measure 70
0100
0020
0000
0000
0000
0030
0001
1000
0001
0000
0100
0010
0000
0100
0000
0020
,  // measure 71
0000
0000
0000
0030
0000
0100
1000
0100
0020
0000
0000
0000
0030
0000
0010
0000
,  // measure 72
0110
1000
0100
0010
0000
0001
0000
0010
0000
0010
0000
1000
0000
0000
0000
0010
;
